  0
SECTION
  2
HEADER
  9
$ACADVER
  1
AC1018
  9
$ACADMAINTVER
 70
     0
  9
$DWGCODEPAGE
  3
ANSI_1252
  9
$INSBASE
 10
0.0
 20
0.0
 30
0.0
  9
$EXTMIN
 10
1.000000000000000E+20
 20
1.000000000000000E+20
 30
1.000000000000000E+20
  9
$EXTMAX
 10
-1.000000000000000E+20
 20
-1.000000000000000E+20
 30
-1.000000000000000E+20
  9
$LIMMIN
 10
0.0
 20
0.0
  9
$LIMMAX
 10
12.0
 20
9.0
  9
$ORTHOMODE
 70
     0
  9
$REGENMODE
 70
     1
  9
$FILLMODE
 70
     1
  9
$QTEXTMODE
 70
     0
  9
$MIRRTEXT
 70
     1
  9
$LTSCALE
 40
1.0
  9
$ATTMODE
 70
     1
  9
$TEXTSIZE
 40
0.2
  9
$TRACEWID
 40
0.05
  9
$TEXTSTYLE
  7
Standard
  9
$CLAYER
  8
0
  9
$CELTYPE
  6
ByLayer
  9
$CECOLOR
 62
   256
  9
$CELTSCALE
 40
1.0
  9
$DISPSILH
 70
     0
  9
$DIMSCALE
 40
1.0
  9
$DIMASZ
 40
0.18
  9
$DIMEXO
 40
0.0625
  9
$DIMDLI
 40
0.38
  9
$DIMRND
 40
0.0
  9
$DIMDLE
 40
0.0
  9
$DIMEXE
 40
0.18
  9
$DIMTP
 40
0.0
  9
$DIMTM
 40
0.0
  9
$DIMTXT
 40
0.18
  9
$DIMCEN
 40
0.09
  9
$DIMTSZ
 40
0.0
  9
$DIMTOL
 70
     0
  9
$DIMLIM
 70
     0
  9
$DIMTIH
 70
     1
  9
$DIMTOH
 70
     1
  9
$DIMSE1
 70
     0
  9
$DIMSE2
 70
     0
  9
$DIMTAD
 70
     0
  9
$DIMZIN
 70
     0
  9
$DIMBLK
  1

  9
$DIMASO
 70
     1
  9
$DIMSHO
 70
     1
  9
$DIMPOST
  1

  9
$DIMAPOST
  1

  9
$DIMALT
 70
     0
  9
$DIMALTD
 70
     2
  9
$DIMALTF
 40
25.4
  9
$DIMLFAC
 40
1.0
  9
$DIMTOFL
 70
     0
  9
$DIMTVP
 40
0.0
  9
$DIMTIX
 70
     0
  9
$DIMSOXD
 70
     0
  9
$DIMSAH
 70
     0
  9
$DIMBLK1
  1

  9
$DIMBLK2
  1

  9
$DIMSTYLE
  2
Standard
  9
$DIMCLRD
 70
     0
  9
$DIMCLRE
 70
     0
  9
$DIMCLRT
 70
     0
  9
$DIMTFAC
 40
1.0
  9
$DIMGAP
 40
0.09
  9
$DIMJUST
 70
     0
  9
$DIMSD1
 70
     0
  9
$DIMSD2
 70
     0
  9
$DIMTOLJ
 70
     1
  9
$DIMTZIN
 70
     0
  9
$DIMALTZ
 70
     0
  9
$DIMALTTZ
 70
     0
  9
$DIMUPT
 70
     0
  9
$DIMDEC
 70
     4
  9
$DIMTDEC
 70
     4
  9
$DIMALTU
 70
     2
  9
$DIMALTTD
 70
     2
  9
$DIMTXSTY
  7
Standard
  9
$DIMAUNIT
 70
     0
  9
$DIMADEC
 70
     0
  9
$DIMALTRND
 40
0.0
  9
$DIMAZIN
 70
     0
  9
$DIMDSEP
 70
    46
  9
$DIMATFIT
 70
     3
  9
$DIMFRAC
 70
     0
  9
$DIMLDRBLK
  1

  9
$DIMLUNIT
 70
     2
  9
$DIMLWD
 70
    -2
  9
$DIMLWE
 70
    -2
  9
$DIMTMOVE
 70
     0
  9
$LUNITS
 70
     2
  9
$LUPREC
 70
     4
  9
$SKETCHINC
 40
0.1
  9
$FILLETRAD
 40
0.5
  9
$AUNITS
 70
     0
  9
$AUPREC
 70
     0
  9
$MENU
  1
.
  9
$ELEVATION
 40
0.0
  9
$PELEVATION
 40
0.0
  9
$THICKNESS
 40
0.0
  9
$LIMCHECK
 70
     0
  9
$CHAMFERA
 40
0.5
  9
$CHAMFERB
 40
0.5
  9
$CHAMFERC
 40
1.0
  9
$CHAMFERD
 40
0.0
  9
$SKPOLY
 70
     0
  9
$TDCREATE
 40
2455966.736982326
  9
$TDUCREATE
 40
2455966.19531566
  9
$TDUPDATE
 40
2455966.736982338
  9
$TDUUPDATE
 40
2455966.195315671
  9
$TDINDWG
 40
0.0000000116
  9
$TDUSRTIMER
 40
0.0000000116
  9
$USRTIMER
 70
     1
  9
$ANGBASE
 50
0.0
  9
$ANGDIR
 70
     0
  9
$PDMODE
 70
     0
  9
$PDSIZE
 40
0.0
  9
$PLINEWID
 40
0.0
  9
$SPLFRAME
 70
     0
  9
$SPLINETYPE
 70
     6
  9
$SPLINESEGS
 70
     8
  9
$HANDSEED
  5
D3
  9
$SURFTAB1
 70
     6
  9
$SURFTAB2
 70
     6
  9
$SURFTYPE
 70
     6
  9
$SURFU
 70
     6
  9
$SURFV
 70
     6
  9
$UCSBASE
  2

  9
$UCSNAME
  2

  9
$UCSORG
 10
0.0
 20
0.0
 30
0.0
  9
$UCSXDIR
 10
1.0
 20
0.0
 30
0.0
  9
$UCSYDIR
 10
0.0
 20
1.0
 30
0.0
  9
$UCSORTHOREF
  2

  9
$UCSORTHOVIEW
 70
     0
  9
$UCSORGTOP
 10
0.0
 20
0.0
 30
0.0
  9
$UCSORGBOTTOM
 10
0.0
 20
0.0
 30
0.0
  9
$UCSORGLEFT
 10
0.0
 20
0.0
 30
0.0
  9
$UCSORGRIGHT
 10
0.0
 20
0.0
 30
0.0
  9
$UCSORGFRONT
 10
0.0
 20
0.0
 30
0.0
  9
$UCSORGBACK
 10
0.0
 20
0.0
 30
0.0
  9
$PUCSBASE
  2

  9
$PUCSNAME
  2

  9
$PUCSORG
 10
0.0
 20
0.0
 30
0.0
  9
$PUCSXDIR
 10
1.0
 20
0.0
 30
0.0
  9
$PUCSYDIR
 10
0.0
 20
1.0
 30
0.0
  9
$PUCSORTHOREF
  2

  9
$PUCSORTHOVIEW
 70
     0
  9
$PUCSORGTOP
 10
0.0
 20
0.0
 30
0.0
  9
$PUCSORGBOTTOM
 10
0.0
 20
0.0
 30
0.0
  9
$PUCSORGLEFT
 10
0.0
 20
0.0
 30
0.0
  9
$PUCSORGRIGHT
 10
0.0
 20
0.0
 30
0.0
  9
$PUCSORGFRONT
 10
0.0
 20
0.0
 30
0.0
  9
$PUCSORGBACK
 10
0.0
 20
0.0
 30
0.0
  9
$USERI1
 70
     0
  9
$USERI2
 70
     0
  9
$USERI3
 70
     0
  9
$USERI4
 70
     0
  9
$USERI5
 70
     0
  9
$USERR1
 40
0.0
  9
$USERR2
 40
0.0
  9
$USERR3
 40
0.0
  9
$USERR4
 40
0.0
  9
$USERR5
 40
0.0
  9
$WORLDVIEW
 70
     1
  9
$SHADEDGE
 70
     3
  9
$SHADEDIF
 70
    70
  9
$TILEMODE
 70
     1
  9
$MAXACTVP
 70
    64
  9
$PINSBASE
 10
0.0
 20
0.0
 30
0.0
  9
$PLIMCHECK
 70
     0
  9
$PEXTMIN
 10
1.000000000000000E+20
 20
1.000000000000000E+20
 30
1.000000000000000E+20
  9
$PEXTMAX
 10
-1.000000000000000E+20
 20
-1.000000000000000E+20
 30
-1.000000000000000E+20
  9
$PLIMMIN
 10
0.0
 20
0.0
  9
$PLIMMAX
 10
12.0
 20
9.0
  9
$UNITMODE
 70
     0
  9
$VISRETAIN
 70
     1
  9
$PLINEGEN
 70
     0
  9
$PSLTSCALE
 70
     1
  9
$TREEDEPTH
 70
  3020
  9
$CMLSTYLE
  2
Standard
  9
$CMLJUST
 70
     0
  9
$CMLSCALE
 40
1.0
  9
$PROXYGRAPHICS
 70
     1
  9
$MEASUREMENT
 70
     0
  9
$CELWEIGHT
370
    -1
  9
$ENDCAPS
280
     0
  9
$JOINSTYLE
280
     0
  9
$LWDISPLAY
290
     1
  9
$INSUNITS
 70
     0
  9
$HYPERLINKBASE
  1

  9
$STYLESHEET
  1

  9
$XEDIT
290
     1
  9
$CEPSNTYPE
380
     0
  9
$PSTYLEMODE
290
     1
  9
$FINGERPRINTGUID
  2
{469C0FF2-6B6E-407D-85C2-EA1EDB815067}
  9
$VERSIONGUID
  2
{FAEB1C32-E019-11D5-929B-00C0DF256EC4}
  9
$EXTNAMES
290
     1
  9
$PSVPSCALE
 40
0.0
  9
$OLESTARTUP
290
     0
  9
$SORTENTS
280
   127
  9
$INDEXCTL
280
     0
  9
$HIDETEXT
280
     1
  9
$XCLIPFRAME
290
     0
  9
$HALOGAP
280
     0
  9
$OBSCOLOR
 70
   257
  9
$OBSLTYPE
280
     0
  9
$INTERSECTIONDISPLAY
280
     0
  9
$INTERSECTIONCOLOR
 70
   257
  9
$DIMASSOC
280
     2
  9
$PROJECTNAME
  1

  0
ENDSEC
  0
SECTION
  2
CLASSES
  0
CLASS
  1
ACDBDICTIONARYWDFLT
  2
AcDbDictionaryWithDefault
  3
ObjectDBX Classes
 90
        0
 91
        4
280
     0
281
     0
  0
CLASS
  1
VISUALSTYLE
  2
AcDbVisualStyle
  3
ObjectDBX Classes
 90
     4095
 91
        4
280
     0
281
     0
  0
CLASS
  1
SCALE
  2
AcDbScale
  3
ObjectDBX Classes
 90
     1153
 91
        4
280
     0
281
     0
  0
CLASS
  1
DICTIONARYVAR
  2
AcDbDictionaryVar
  3
ObjectDBX Classes
 90
        0
 91
        4
280
     0
281
     0
  0
ENDSEC
  0
SECTION
  2
TABLES
  0
TABLE
  2
VPORT
  5
8
330
0
100
AcDbSymbolTable
 70
     1
  0
VPORT
  5
29
330
8
100
AcDbSymbolTableRecord
100
AcDbViewportTableRecord
  2
*Active
 70
     0
 10
0.0
 20
0.0
 11
1.0
 21
1.0
 12
-44.457173837987
 22
25.07447778535203
 13
0.0
 23
0.0
 14
0.5
 24
0.5
 15
0.5
 25
0.5
 16
0.0
 26
0.0
 36
1.0
 17
0.0
 27
0.0
 37
0.0
 40
664.9912513434366
 41
0.9245200217496581
 42
50.0
 43
0.0
 44
0.0
 50
0.0
 51
0.0
 71
     0
 72
   100
 73
     1
 74
     3
 75
     0
 76
     0
 77
     0
 78
     0
281
     0
 65
     1
110
0.0
120
0.0
130
0.0
111
1.0
121
0.0
131
0.0
112
0.0
122
1.0
132
0.0
 79
     0
146
0.0
  0
ENDTAB
  0
TABLE
  2
LTYPE
  5
5
330
0
100
AcDbSymbolTable
 70
     3
  0
LTYPE
  5
14
330
5
100
AcDbSymbolTableRecord
100
AcDbLinetypeTableRecord
  2
ByBlock
 70
     0
  3

 72
    65
 73
     0
 40
0.0
  0
LTYPE
  5
15
330
5
100
AcDbSymbolTableRecord
100
AcDbLinetypeTableRecord
  2
ByLayer
 70
     0
  3

 72
    65
 73
     0
 40
0.0
  0
LTYPE
  5
16
330
5
100
AcDbSymbolTableRecord
100
AcDbLinetypeTableRecord
  2
Continuous
 70
     0
  3
Solid line
 72
    65
 73
     0
 40
0.0
  0
LTYPE
  5
66
330
5
100
AcDbSymbolTableRecord
100
AcDbLinetypeTableRecord
  2
DASHEDX2
 70
     0
  3
- - - - - 
 72
    65
 73
     2
 40
7.5
 49
5.0
 74
     0
 49
-2.5
 74
     0
  0
LTYPE
  5
7E
330
5
100
AcDbSymbolTableRecord
100
AcDbLinetypeTableRecord
  2
Hidden
 70
     0
  3
- - - - - 
 72
    65
 73
     2
 40
2.469444990158081
 49
1.411111354827881
 74
     0
 49
-1.0583336353302
 74
     0
  0
ENDTAB
  0
TABLE
  2
LAYER
  5
2
330
0
100
AcDbSymbolTable
 70
    16
  0
LAYER
  5
10
330
2
100
AcDbSymbolTableRecord
100
AcDbLayerTableRecord
  2
0
 70
     0
 62
     7
  6
Continuous
370
    -3
390
F
  0
LAYER
  5
3C
330
2
100
AcDbSymbolTableRecord
100
AcDbLayerTableRecord
  2
chh-08_Pen_No__8_Pen_No__81
 70
     0
 62
   251
420
  6974058
  6
Continuous
370
    20
390
F
  0
LAYER
  5
3E
330
2
100
AcDbSymbolTableRecord
100
AcDbLayerTableRecord
  2
chh-08_Pen_No__8_Pen_No__101
 70
     0
 62
     8
  6
Continuous
370
    13
390
F
  0
LAYER
  5
43
330
2
100
AcDbSymbolTableRecord
100
AcDbLayerTableRecord
  2
chh-09_Pen_No__9_Pen_No__2
 70
     0
 62
     8
420
  8355711
  6
Continuous
370
    15
390
F
  0
LAYER
  5
4B
330
2
100
AcDbSymbolTableRecord
100
AcDbLayerTableRecord
  2
Documentation_ Floor_Pen_No__18
 70
     0
 62
     9
  6
Continuous
370
    15
390
F
  0
LAYER
  5
4C
330
2
100
AcDbSymbolTableRecord
100
AcDbLayerTableRecord
  2
Documentation_ Floor_Pen_No__1
 70
     0
 62
     7
  6
Continuous
370
    13
390
F
  0
LAYER
  5
55
330
2
100
AcDbSymbolTableRecord
100
AcDbLayerTableRecord
  2
chh-08_Pen_No__8_Pen_No__250
 70
     0
 62
   254
420
 15263976
  6
Continuous
370
    13
390
F
  0
LAYER
  5
57
330
2
100
AcDbSymbolTableRecord
100
AcDbLayerTableRecord
  2
chh-08_Pen_No__8_Pen_No__1
 70
     0
 62
     7
  6
Continuous
370
    13
390
F
  0
LAYER
  5
62
330
2
100
AcDbSymbolTableRecord
100
AcDbLayerTableRecord
  2
chh-07_Pen_No__7_Pen_No__7
 70
     0
 62
     7
  6
Continuous
370
    18
390
F
  0
LAYER
  5
70
330
2
100
AcDbSymbolTableRecord
100
AcDbLayerTableRecord
  2
chh-06_Pen_No__7_Pen_No__81
 70
     0
 62
   251
420
  6974058
  6
Continuous
370
    20
390
F
  0
LAYER
  5
74
330
2
100
AcDbSymbolTableRecord
100
AcDbLayerTableRecord
  2
chh-05_Pen_No__7_Pen_No__7
 70
     0
 62
     7
  6
Continuous
370
    18
390
F
  0
LAYER
  5
8A
330
2
100
AcDbSymbolTableRecord
100
AcDbLayerTableRecord
  2
chh-txt_Pen_No__1
 70
     0
 62
     7
  6
Continuous
370
    13
390
F
  0
LAYER
  5
8D
330
2
100
AcDbSymbolTableRecord
100
AcDbLayerTableRecord
  2
chh-txt_Pen_No__7
 70
     0
 62
     7
  6
Continuous
370
    18
390
F
  0
LAYER
  5
B7
330
2
100
AcDbSymbolTableRecord
100
AcDbLayerTableRecord
  2
chh-txt
 70
     0
 62
     7
  6
Continuous
370
    -3
390
F
  0
LAYER
  5
BF
330
2
100
AcDbSymbolTableRecord
100
AcDbLayerTableRecord
  2
chh-txt_Pen_No__7_Pen_No__7
 70
     0
 62
     7
  6
Continuous
370
    18
390
F
  0
LAYER
  5
C2
330
2
100
AcDbSymbolTableRecord
100
AcDbLayerTableRecord
  2
Defpoints_Pen_No__211_Pen_No__115
 70
     0
 62
   211
420
 16738047
  6
Continuous
370
    13
390
F
  0
ENDTAB
  0
TABLE
  2
STYLE
  5
3
330
0
100
AcDbSymbolTable
 70
     2
  0
STYLE
  5
11
330
3
100
AcDbSymbolTableRecord
100
AcDbTextStyleTableRecord
  2
Standard
 70
     0
 40
0.0
 41
1.0
 50
0.0
 71
     0
 42
0.2
  3
txt
  4
BIGFONT.SHX
  0
STYLE
  5
92
330
3
100
AcDbSymbolTableRecord
100
AcDbTextStyleTableRecord
  2
GENERATED_STYLE_1
 70
     0
 40
0.0
 41
1.0
 50
0.0
 71
     0
 42
0.2
  3

  4

1001
ACAD
1000
Arial Unicode MS
1071
       34
  0
ENDTAB
  0
TABLE
  2
VIEW
  5
6
330
0
100
AcDbSymbolTable
 70
     0
  0
ENDTAB
  0
TABLE
  2
UCS
  5
7
330
0
100
AcDbSymbolTable
 70
     0
  0
ENDTAB
  0
TABLE
  2
APPID
  5
9
330
0
100
AcDbSymbolTable
 70
     1
  0
APPID
  5
12
330
9
100
AcDbSymbolTableRecord
100
AcDbRegAppTableRecord
  2
ACAD
 70
     0
  0
ENDTAB
  0
TABLE
  2
DIMSTYLE
  5
A
330
0
100
AcDbSymbolTable
 70
     2
100
AcDbDimStyleTable
  0
DIMSTYLE
105
27
330
A
100
AcDbSymbolTableRecord
100
AcDbDimStyleTableRecord
  2
Standard
 70
     0
340
11
  0
DIMSTYLE
105
B8
102
{ACAD_REACTORS
330
B6
102
}
330
A
100
AcDbSymbolTableRecord
100
AcDbDimStyleTableRecord
  2
GENERATED_STYLE__1
 70
     0
 41
0.0214737653944711
 42
1.0
 73
     0
 74
     0
 77
     1
140
5.0
172
     1
176
     7
177
     7
178
     7
271
     0
340
92
342
B9
343
B9
344
B9
  0
ENDTAB
  0
TABLE
  2
BLOCK_RECORD
  5
1
330
0
100
AcDbSymbolTable
 70
     4
  0
BLOCK_RECORD
  5
1F
330
1
100
AcDbSymbolTableRecord
100
AcDbBlockTableRecord
  2
*Model_Space
340
22
  0
BLOCK_RECORD
  5
1B
330
1
100
AcDbSymbolTableRecord
100
AcDbBlockTableRecord
  2
*Paper_Space
340
1E
  0
BLOCK_RECORD
  5
23
330
1
100
AcDbSymbolTableRecord
100
AcDbBlockTableRecord
  2
*Paper_Space0
340
26
  0
BLOCK_RECORD
  5
86
330
1
100
AcDbSymbolTableRecord
100
AcDbBlockTableRecord
  2
*D1
340
0
  0
BLOCK_RECORD
  5
B9
330
1
100
AcDbSymbolTableRecord
100
AcDbBlockTableRecord
  2
ARROWHEAD_2
340
0
  0
BLOCK_RECORD
  5
CA
330
1
100
AcDbSymbolTableRecord
100
AcDbBlockTableRecord
  2
Untitled _STORY_MARKER
340
0
  0
ENDTAB
  0
ENDSEC
  0
SECTION
  2
BLOCKS
  0
BLOCK
  5
20
330
1F
100
AcDbEntity
  8
0
100
AcDbBlockBegin
  2
*Model_Space
 70
     0
 10
0.0
 20
0.0
 30
0.0
  3
*Model_Space
  1

  0
ENDBLK
  5
21
330
1F
100
AcDbEntity
  8
0
100
AcDbBlockEnd
  0
BLOCK
  5
1C
330
1B
100
AcDbEntity
 67
     1
  8
0
100
AcDbBlockBegin
  2
*Paper_Space
 70
     0
 10
0.0
 20
0.0
 30
0.0
  3
*Paper_Space
  1

  0
ENDBLK
  5
1D
330
1B
100
AcDbEntity
 67
     1
  8
0
100
AcDbBlockEnd
  0
BLOCK
  5
24
330
23
100
AcDbEntity
  8
0
100
AcDbBlockBegin
  2
*Paper_Space0
 70
     0
 10
0.0
 20
0.0
 30
0.0
  3
*Paper_Space0
  1

  0
ENDBLK
  5
25
330
23
100
AcDbEntity
  8
0
100
AcDbBlockEnd
  0
BLOCK
  5
87
330
86
100
AcDbEntity
  8
0
100
AcDbBlockBegin
  2
*D1
 70
     1
 10
0.0
 20
0.0
 30
0.0
  3
*D1
  1

  0
LINE
  5
89
330
86
100
AcDbEntity
  8
chh-txt_Pen_No__1
  6
Continuous
100
AcDbLine
 10
52.29333029284233
 20
-48.88837640874947
 30
0.0
 11
52.29333029284233
 21
-48.8745597360154
 31
0.0
  0
LINE
  5
8B
330
86
100
AcDbEntity
  8
chh-txt_Pen_No__1
  6
Continuous
100
AcDbLine
 10
52.29333029284233
 20
-48.8745597360154
 30
0.0
 11
52.29333029284233
 21
1.125440263983535
 31
0.0
  0
LINE
  5
8C
330
86
100
AcDbEntity
  8
chh-txt_Pen_No__7
  6
Continuous
100
AcDbLine
 10
52.27920281560912
 20
-48.86640323703481
 30
0.0
 11
52.30745777007554
 21
-48.88271623499599
 31
0.0
  0
LINE
  5
8E
330
86
100
AcDbEntity
  8
chh-txt_Pen_No__7
  6
Continuous
100
AcDbLine
 10
52.30745777007554
 20
1.117283765002944
 30
0.0
 11
52.27920281560912
 21
1.133596762964126
 31
0.0
  0
LINE
  5
8F
330
86
100
AcDbEntity
  8
chh-txt_Pen_No__1
  6
Continuous
100
AcDbLine
 10
52.29333029284233
 20
1.125440263983535
 30
0.0
 11
52.29333029284233
 21
1.139256936717612
 31
0.0
  0
LINE
  5
90
330
86
100
AcDbEntity
  8
chh-txt_Pen_No__1
  6
Continuous
100
AcDbLine
 10
52.31452150869214
 20
-48.8745597360154
 30
0.0
 11
-1.154522638507793
 21
-48.8745597360154
 31
0.0
  0
LINE
  5
91
330
86
100
AcDbEntity
  8
chh-txt_Pen_No__1
  6
Continuous
100
AcDbLine
 10
52.31452150869214
 20
1.125440263983535
 30
0.0
 11
-1.154522638507793
 21
1.125440263983538
 31
0.0
  0
MTEXT
  5
93
330
86
100
AcDbEntity
  8
chh-txt_Pen_No__7
100
AcDbMText
 10
46.29333029284233
 20
-40.32163462615265
 30
0.0
 40
5.0
 41
0.0
 71
     1
 72
     1
  1
{50mm min}
  7
GENERATED_STYLE_1
 11
6.123233995736766E-17
 21
1.0
 31
0.0
 73
     1
 44
1.0
  0
ENDBLK
  5
88
330
86
100
AcDbEntity
  8
0
100
AcDbBlockEnd
  0
BLOCK
  5
BA
330
B9
100
AcDbEntity
  8
0
100
AcDbBlockBegin
  2
ARROWHEAD_2
 70
     0
 10
0.0
 20
0.0
 30
0.0
  3
ARROWHEAD_2
  1

  0
LINE
  5
BC
330
B9
100
AcDbEntity
  8
0
  6
Continuous
 62
     0
370
     0
100
AcDbLine
 10
-0.3781315
 20
-0.655
 30
0.0
 11
0.3781315
 21
0.655
 31
0.0
  0
LINE
  5
BD
330
B9
100
AcDbEntity
  8
0
  6
Continuous
 62
     0
370
     0
100
AcDbLine
 10
0.0
 20
0.0
 30
0.0
 11
-1.0
 21
0.0
 31
0.0
  0
ENDBLK
  5
BB
330
B9
100
AcDbEntity
  8
0
100
AcDbBlockEnd
  0
BLOCK
  5
CB
330
CA
100
AcDbEntity
  8
0
100
AcDbBlockBegin
  2
Untitled _STORY_MARKER
 70
     0
 10
0.0
 20
0.0
 30
0.0
  3
Untitled _STORY_MARKER
  1

  0
ENDBLK
  5
CC
330
CA
100
AcDbEntity
  8
0
100
AcDbBlockEnd
  0
ENDSEC
  0
SECTION
  2
ENTITIES
  0
HATCH
  5
3B
330
1F
100
AcDbEntity
  8
chh-08_Pen_No__8_Pen_No__81
  6
Continuous
100
AcDbHatch
 10
0.0
 20
0.0
 30
0.0
210
0.0
220
0.0
230
1.0
  2
Plywood_90
 70
     0
 71
     0
 91
        1
 92
        2
 72
     0
 73
     1
 93
        4
 10
-19.1545226385077
 20
-48.8745597360154
 10
-7.154522638507688
 20
-48.8745597360154
 10
-7.154522638507688
 20
341.2369279806375
 10
-19.1545226385077
 20
341.2369279806375
 97
        0
 75
     0
 76
     2
 52
0.0
 41
1.0
 77
     0
 78
     1
 53
90.0
 43
0.0
 44
0.0
 45
-2.0
 46
0.0
 79
     0
 98
        0
  0
HATCH
  5
3D
330
1F
100
AcDbEntity
  8
chh-08_Pen_No__8_Pen_No__101
  6
Continuous
100
AcDbHatch
 10
0.0
 20
0.0
 30
0.0
210
0.0
220
0.0
230
1.0
  2
Plaster
 70
     0
 71
     0
 91
        1
 92
        2
 72
     0
 73
     1
 93
        4
 10
-115.1545226385073
 20
341.2369279806375
 10
-125.1545226385071
 20
341.2369279806375
 10
-125.1545226385071
 20
226.0847387309699
 10
-115.1545226385073
 20
226.0847387309699
 97
        0
 75
     0
 76
     2
 52
0.0
 41
1.0
 77
     0
 78
     2
 53
0.0
 43
0.0
 44
0.0
 45
0.0
 46
1.732050807568877
 79
     2
 49
0.0
 49
-1.0
 53
0.0
 43
0.5
 44
0.8660253882408142
 45
0.0
 46
1.732050807568877
 79
     2
 49
0.0
 49
-1.0
 98
        0
  0
HATCH
  5
3F
330
1F
100
AcDbEntity
  8
chh-08_Pen_No__8_Pen_No__101
  6
Continuous
100
AcDbHatch
 10
0.0
 20
0.0
 30
0.0
210
0.0
220
0.0
230
1.0
  2
Plywood
 70
     0
 71
     0
 91
        1
 92
        2
 72
     0
 73
     1
 93
        4
 10
-23.1545226385077
 20
226.0847377828945
 10
-336.014954823434
 20
226.0847377828945
 10
-336.014954823434
 20
202.0847387309708
 10
-23.1545226385077
 20
202.0847387309708
 97
        0
 75
     0
 76
     2
 52
0.0
 41
1.0
 77
     0
 78
     1
 53
0.0
 43
0.0
 44
0.0
 45
0.0
 46
2.4
 79
     0
 98
        0
  0
HATCH
  5
40
330
1F
100
AcDbEntity
  8
chh-08_Pen_No__8_Pen_No__101
  6
Continuous
100
AcDbHatch
 10
0.0
 20
0.0
 30
0.0
210
0.0
220
0.0
230
1.0
  2
Plaster
 70
     0
 71
     0
 91
        1
 92
        2
 72
     0
 73
     1
 93
        4
 10
-241.7604073647611
 20
12.08473873096949
 10
-251.7604073647614
 20
12.08473873096949
 10
-251.7604073647614
 20
-185.2236359535819
 10
-241.7604073647611
 20
-185.2236359535819
 97
        0
 75
     0
 76
     2
 52
0.0
 41
1.0
 77
     0
 78
     2
 53
0.0
 43
0.0
 44
0.0
 45
0.0
 46
1.732050807568877
 79
     2
 49
0.0
 49
-1.0
 53
0.0
 43
0.5
 44
0.8660253882408142
 45
0.0
 46
1.732050807568877
 79
     2
 49
0.0
 49
-1.0
 98
        0
  0
HATCH
  5
41
330
1F
100
AcDbEntity
  8
chh-08_Pen_No__8_Pen_No__101
  6
Continuous
100
AcDbHatch
 10
0.0
 20
0.0
 30
0.0
210
0.0
220
0.0
230
1.0
  2
Plaster
 70
     0
 71
     0
 91
        1
 92
        2
 72
     0
 73
     1
 93
        4
 10
-251.7604073647614
 20
12.08473837387203
 10
-336.014954823434
 20
12.08473837387203
 10
-336.014954823434
 20
2.084738730969704
 10
-251.7604073647614
 20
2.084738730969704
 97
        0
 75
     0
 76
     2
 52
0.0
 41
1.0
 77
     0
 78
     2
 53
0.0
 43
0.0
 44
0.0
 45
0.0
 46
1.732050807568877
 79
     2
 49
0.0
 49
-1.0
 53
0.0
 43
0.5
 44
0.8660253882408142
 45
0.0
 46
1.732050807568877
 79
     2
 49
0.0
 49
-1.0
 98
        0
  0
HATCH
  5
42
330
1F
100
AcDbEntity
  8
chh-09_Pen_No__9_Pen_No__2
  6
Continuous
100
AcDbHatch
 10
0.0
 20
0.0
 30
0.0
210
0.0
220
0.0
230
1.0
  2
SOLID
 70
     1
 71
     0
 91
        1
 92
        2
 72
     0
 73
     1
 93
        3
 10
0.5729846344031397
 20
327.334705140557
 10
0.5729846344035838
 20
330.1347039382048
 10
-7.827011758536839
 20
328.7347045393831
 97
        0
 75
     0
 76
     1
 98
        0
  0
HATCH
  5
44
330
1F
100
AcDbEntity
  8
chh-09_Pen_No__9_Pen_No__2
  6
Continuous
100
AcDbHatch
 10
0.0
 20
0.0
 30
0.0
210
0.0
220
0.0
230
1.0
  2
SOLID
 70
     1
 71
     0
 91
        1
 92
        2
 72
     0
 73
     1
 93
        3
 10
-11.89410519928225
 20
301.1783817178309
 10
-11.8941051992818
 20
303.9783805154776
 10
-20.29410159222223
 20
302.578381116656
 97
        0
 75
     0
 76
     1
 98
        0
  0
HATCH
  5
45
330
1F
100
AcDbEntity
  8
chh-09_Pen_No__9_Pen_No__2
  6
Continuous
100
AcDbHatch
 10
0.0
 20
0.0
 30
0.0
210
0.0
220
0.0
230
1.0
  2
SOLID
 70
     1
 71
     0
 91
        1
 92
        2
 72
     0
 73
     1
 93
        3
 10
-38.16426385385596
 20
173.7843539685553
 10
-38.16426385385552
 20
176.5843527662021
 10
-46.56426024679594
 20
175.1843533673805
 97
        0
 75
     0
 76
     1
 98
        0
  0
HATCH
  5
46
330
1F
100
AcDbEntity
  8
chh-09_Pen_No__9_Pen_No__2
  6
Continuous
100
AcDbHatch
 10
0.0
 20
0.0
 30
0.0
210
0.0
220
0.0
230
1.0
  2
SOLID
 70
     1
 71
     0
 91
        1
 92
        2
 72
     0
 73
     1
 93
        3
 10
-14.26241329577294
 20
-57.70185663950222
 10
-11.46241449812568
 20
-57.70185663950222
 10
-12.86241389694731
 20
-49.30186024656269
 97
        0
 75
     0
 76
     1
 98
        0
  0
HATCH
  5
47
330
1F
100
AcDbEntity
  8
chh-09_Pen_No__9_Pen_No__2
  6
Continuous
100
AcDbHatch
 10
0.0
 20
0.0
 30
0.0
210
0.0
220
0.0
230
1.0
  2
SOLID
 70
     1
 71
     0
 91
        1
 92
        2
 72
     0
 73
     1
 93
        3
 10
-96.20708433778691
 20
14.07412209959169
 10
-99.00708313543416
 20
14.07412209959169
 10
-97.60708373661208
 20
5.674125706651267
 97
        0
 75
     0
 76
     1
 98
        0
  0
HATCH
  5
48
330
1F
100
AcDbEntity
  8
chh-09_Pen_No__9_Pen_No__2
  6
Continuous
100
AcDbHatch
 10
0.0
 20
0.0
 30
0.0
210
0.0
220
0.0
230
1.0
  2
SOLID
 70
     1
 71
     0
 91
        1
 92
        2
 72
     0
 73
     1
 93
        3
 10
-12.83119839607827
 20
-165.7561585670351
 10
-12.83119839607783
 20
-162.9561597693883
 10
-21.23119478901825
 20
-164.3561591682108
 97
        0
 75
     0
 76
     1
 98
        0
  0
HATCH
  5
49
330
1F
100
AcDbEntity
  8
chh-09_Pen_No__9_Pen_No__2
  6
Continuous
100
AcDbHatch
 10
0.0
 20
0.0
 30
0.0
210
0.0
220
0.0
230
1.0
  2
SOLID
 70
     1
 71
     0
 91
        1
 92
        2
 72
     0
 73
     1
 93
        3
 10
-139.0067722587134
 20
-124.9022584406472
 10
-139.0067722587129
 20
-122.1022596430004
 10
-147.4067686516534
 20
-123.5022590418211
 97
        0
 75
     0
 76
     1
 98
        0
  0
HATCH
  5
4A
330
1F
100
AcDbEntity
  8
Documentation_ Floor_Pen_No__18
  6
Continuous
100
AcDbHatch
 10
0.0
 20
0.0
 30
0.0
210
0.0
220
0.0
230
1.0
  2
ANSI32
 70
     0
 71
     1
 91
        1
 92
        2
 72
     0
 73
     1
 93
        4
 10
-24.76040736476093
 20
1.125440263979982
 10
-124.7604073647606
 20
1.125440263979982
 10
-124.7604073647606
 20
-88.87455973601988
 10
-24.76040736476093
 20
-88.87455973601988
 97
        1
330
4D
 75
     0
 76
     2
 52
0.0
 41
1.0
 77
     0
 78
     2
 53
45.0
 43
0.0
 44
0.0
 45
-26.51650429449553
 46
26.51650429449553
 79
     0
 53
45.0
 43
17.6776695
 44
0.0
 45
-26.51650429449553
 46
26.51650429449553
 79
     0
 98
        0
  0
LWPOLYLINE
  5
4D
102
{ACAD_REACTORS
330
4A
102
}
330
1F
100
AcDbEntity
  8
Documentation_ Floor_Pen_No__1
  6
Continuous
100
AcDbPolyline
 90
        4
 70
   129
 43
0.0
 10
-24.76040736476093
 20
1.125440263979982
 10
-124.7604073647606
 20
1.125440263979982
 10
-124.7604073647606
 20
-88.87455973601988
 10
-24.76040736476093
 20
-88.87455973601988
  0
HATCH
  5
4E
330
1F
100
AcDbEntity
  8
Documentation_ Floor_Pen_No__18
  6
Continuous
100
AcDbHatch
 10
0.0
 20
0.0
 30
0.0
210
0.0
220
0.0
230
1.0
  2
ANSI32
 70
     0
 71
     1
 91
        1
 92
        2
 72
     0
 73
     1
 93
        8
 10
-124.7604073647615
 20
-98.87455996937759
 10
-124.7604073647615
 20
-185.2236363945264
 10
-46.65893031866975
 20
-185.2236359535819
 10
-46.65893031866975
 20
-195.0372893580203
 10
-40.11649471571066
 20
-175.4099825491426
 10
-40.11649479293735
 20
-185.2236363945264
 10
-24.76040736476093
 20
-185.2236363945264
 10
-24.76040736476093
 20
-98.87455996937759
 97
        1
330
4F
 75
     0
 76
     2
 52
0.0
 41
1.0
 77
     0
 78
     2
 53
45.0
 43
0.0
 44
0.0
 45
-26.51650429449553
 46
26.51650429449553
 79
     0
 53
45.0
 43
17.6776695
 44
0.0
 45
-26.51650429449553
 46
26.51650429449553
 79
     0
 98
        0
  0
LWPOLYLINE
  5
4F
102
{ACAD_REACTORS
330
4E
102
}
330
1F
100
AcDbEntity
  8
Documentation_ Floor_Pen_No__1
  6
Continuous
100
AcDbPolyline
 90
        8
 70
   129
 43
0.0
 10
-124.7604073647615
 20
-98.87455996937759
 10
-124.7604073647615
 20
-185.2236363945264
 10
-46.65893031866975
 20
-185.2236359535819
 10
-46.65893031866975
 20
-195.0372893580203
 10
-40.11649471571066
 20
-175.4099825491426
 10
-40.11649479293735
 20
-185.2236363945264
 10
-24.76040736476093
 20
-185.2236363945264
 10
-24.76040736476093
 20
-98.87455996937759
  0
HATCH
  5
50
330
1F
100
AcDbEntity
  8
Documentation_ Floor_Pen_No__18
  6
Continuous
100
AcDbHatch
 10
0.0
 20
0.0
 30
0.0
210
0.0
220
0.0
230
1.0
  2
LINE
 70
     0
 71
     1
 91
        1
 92
        2
 72
     0
 73
     1
 93
        4
 10
-21.15452263850703
 20
8.084738730969931
 10
-146.154522638507
 20
8.084738730969931
 10
-146.154522638507
 20
3.084738730970926
 10
-21.15452263850703
 20
3.084738730970926
 97
        1
330
51
 75
     0
 76
     2
 52
0.0
 41
1.0
 77
     0
 78
     1
 53
44.99999999999999
 43
0.0
 44
0.0
 45
-4.419417382415921
 46
4.419417382415923
 79
     0
 98
        0
  0
LWPOLYLINE
  5
51
102
{ACAD_REACTORS
330
50
102
}
330
1F
100
AcDbEntity
  8
Documentation_ Floor_Pen_No__1
  6
Continuous
100
AcDbPolyline
 90
        4
 70
   129
 43
0.0
 10
-21.15452263850703
 20
8.084738730969931
 10
-146.154522638507
 20
8.084738730969931
 10
-146.154522638507
 20
3.084738730970926
 10
-21.15452263850703
 20
3.084738730970926
  0
LINE
  5
52
330
1F
100
AcDbEntity
  8
chh-08_Pen_No__8_Pen_No__81
  6
Continuous
100
AcDbLine
 10
-68.15452263850763
 20
12.08473873096949
 30
0.0
 11
-23.1545226385077
 21
202.0847387309708
 31
0.0
  0
LINE
  5
53
330
1F
100
AcDbEntity
  8
chh-08_Pen_No__8_Pen_No__81
  6
Continuous
100
AcDbLine
 10
-68.15452263850763
 20
202.0847387309708
 30
0.0
 11
-23.1545226385077
 21
12.08473873096949
 31
0.0
  0
LINE
  5
54
330
1F
100
AcDbEntity
  8
chh-08_Pen_No__8_Pen_No__250
  6
Continuous
100
AcDbLine
 10
-113.1545226385071
 20
226.0847387309699
 30
0.0
 11
-113.1545226385071
 21
341.2227609610596
 31
0.0
  0
LINE
  5
56
330
1F
100
AcDbEntity
  8
chh-08_Pen_No__8_Pen_No__1
  6
Continuous
100
AcDbLine
 10
-23.1545226385077
 20
202.0847387309708
 30
0.0
 11
-23.1545226385077
 21
341.2227609610596
 31
0.0
  0
LINE
  5
58
330
1F
100
AcDbEntity
  8
chh-08_Pen_No__8_Pen_No__81
  6
Continuous
100
AcDbLine
 10
-23.1545226385077
 20
226.0847387309699
 30
0.0
 11
-113.1545226385071
 21
271.0847387309698
 31
0.0
  0
LINE
  5
59
330
1F
100
AcDbEntity
  8
chh-08_Pen_No__8_Pen_No__81
  6
Continuous
100
AcDbLine
 10
-113.1545226385071
 20
226.0847387309699
 30
0.0
 11
-23.1545226385077
 21
271.0847387309698
 31
0.0
  0
LINE
  5
5A
330
1F
100
AcDbEntity
  8
chh-08_Pen_No__8_Pen_No__250
  6
Continuous
100
AcDbLine
 10
-239.7604073647613
 20
12.08473873096949
 30
0.0
 11
-239.7604073647613
 21
-185.2236359535819
 31
0.0
  0
LINE
  5
5B
330
1F
100
AcDbEntity
  8
chh-08_Pen_No__8_Pen_No__81
  6
Continuous
100
AcDbLine
 10
-149.7604073647609
 20
12.08473873096949
 30
0.0
 11
-239.7604073647613
 21
-32.91526126902955
 31
0.0
  0
LINE
  5
5C
330
1F
100
AcDbEntity
  8
chh-08_Pen_No__8_Pen_No__81
  6
Continuous
100
AcDbLine
 10
-239.7604073647613
 20
12.08473873096949
 30
0.0
 11
-149.7604073647609
 21
-32.91526126902955
 31
0.0
  0
LINE
  5
5D
330
1F
100
AcDbEntity
  8
chh-08_Pen_No__8_Pen_No__1
  6
Continuous
100
AcDbLine
 10
-149.7604073647609
 20
12.08473873096949
 30
0.0
 11
-23.1545226385077
 21
12.08473873097038
 31
0.0
  0
LINE
  5
5E
330
1F
100
AcDbEntity
  8
chh-08_Pen_No__8_Pen_No__1
  6
Continuous
100
AcDbLine
 10
-149.7604073647609
 20
-185.2236359535819
 30
0.0
 11
-149.7604073647609
 21
12.08473873096949
 31
0.0
  0
LINE
  5
5F
330
1F
100
AcDbEntity
  8
chh-08_Pen_No__8_Pen_No__81
  6
Continuous
100
AcDbLine
 10
-194.7604073647618
 20
12.08473873096949
 30
0.0
 11
-149.7604073647609
 21
202.0847387309708
 31
0.0
  0
LINE
  5
60
330
1F
100
AcDbEntity
  8
chh-08_Pen_No__8_Pen_No__81
  6
Continuous
100
AcDbLine
 10
-194.7604073647618
 20
57.08473873096942
 30
0.0
 11
-284.7604073647612
 21
12.08473873096949
 31
0.0
  0
LINE
  5
61
330
1F
100
AcDbEntity
  8
chh-07_Pen_No__7_Pen_No__7
  6
Continuous
100
AcDbLine
 10
-68.15452263850763
 20
202.0847387309708
 30
0.0
 11
-336.014954823434
 21
202.0847387309708
 31
0.0
  0
LINE
  5
63
330
1F
100
AcDbEntity
  8
chh-07_Pen_No__7_Pen_No__7
  6
Continuous
100
AcDbLine
 10
-23.1545226385077
 20
226.0847387309699
 30
0.0
 11
-336.014954823434
 21
226.0847387309699
 31
0.0
  0
LINE
  5
64
330
1F
100
AcDbEntity
  8
chh-07_Pen_No__7_Pen_No__7
  6
Continuous
100
AcDbLine
 10
-194.7604073647618
 20
12.08473873096949
 30
0.0
 11
-336.014954823434
 21
12.08473873096949
 31
0.0
  0
LINE
  5
65
330
1F
100
AcDbEntity
  8
chh-07_Pen_No__7_Pen_No__7
  6
Continuous
100
AcDbLine
 10
-251.7604073647614
 20
2.084738730969704
 30
0.0
 11
-336.014954823434
 21
2.084738730969704
 31
0.0
  0
LWPOLYLINE
  5
67
330
1F
100
AcDbEntity
  8
chh-08_Pen_No__8_Pen_No__1
  6
DASHEDX2
100
AcDbPolyline
 90
        4
 70
   128
 43
0.0
 10
-21.15452263850703
 20
341.2369279806375
 10
-21.15452263850703
 20
10.08473873096971
 10
-147.7604073647616
 20
10.08473873096971
 10
-147.7604073647616
 20
-185.2236359535819
  0
LWPOLYLINE
  5
68
330
1F
100
AcDbEntity
  8
chh-08_Pen_No__8_Pen_No__81
  6
Continuous
100
AcDbPolyline
 90
        6
 70
   128
 43
0.0
 10
15.11667889172164
 20
341.2369279806375
 10
-63.11649471571079
 20
341.2369279806375
 10
-63.11649471571079
 20
351.0505813850759
 10
-69.65893031866943
 20
331.4232745761991
 10
-69.65893031866943
 20
341.2369279806375
 10
-153.6407389740806
 20
341.2369279806375
  0
LWPOLYLINE
  5
69
330
1F
100
AcDbEntity
  8
chh-08_Pen_No__8_Pen_No__81
  6
Continuous
100
AcDbPolyline
 90
        6
 70
   128
 43
0.0
 10
-336.014954823434
 20
-19.66668793583537
 10
-336.014954823434
 20
129.7667940410179
 10
-345.8286082278725
 20
129.7667940410179
 10
-326.2013014189952
 20
136.3092296439765
 10
-336.014954823434
 20
136.3092296439765
 10
-336.014954823434
 20
248.7384598897506
  0
LWPOLYLINE
  5
6A
330
1F
100
AcDbEntity
  8
chh-08_Pen_No__8_Pen_No__81
  6
Continuous
100
AcDbPolyline
 90
        6
 70
   128
 43
0.0
 10
38.11667889172088
 20
-185.2236359535819
 10
-40.11649471571066
 20
-185.2236359535819
 10
-40.11649471571066
 20
-175.4099825491426
 10
-46.65893031866975
 20
-195.0372893580203
 10
-46.65893031866975
 20
-185.2236359535819
 10
-281.9692818605189
 20
-185.2236359535819
  0
LWPOLYLINE
  5
6B
330
1F
100
AcDbEntity
  8
chh-09_Pen_No__9_Pen_No__2
  6
Continuous
100
AcDbPolyline
 90
        2
 70
   128
 43
0.0
 10
131.2820782353758
 20
328.7347045393769
 10
0.5729846344031397
 20
328.7347045393805
  0
LWPOLYLINE
  5
6C
330
1F
100
AcDbEntity
  8
chh-09_Pen_No__9_Pen_No__2
  6
Continuous
100
AcDbPolyline
 90
        2
 70
   128
 43
0.0
 10
131.2820782353758
 20
302.5783811166543
 10
-11.89410519928225
 20
302.5783811166543
  0
LWPOLYLINE
  5
6D
330
1F
100
AcDbEntity
  8
chh-09_Pen_No__9_Pen_No__2
  6
Continuous
100
AcDbPolyline
 90
        2
 70
   128
 43
0.0
 10
131.2820782353758
 20
175.1843533673796
 10
-36.16426385385574
 20
175.1843533673796
  0
LWPOLYLINE
  5
6E
330
1F
100
AcDbEntity
  8
chh-09_Pen_No__9_Pen_No__2
  6
Continuous
100
AcDbPolyline
 90
        3
 70
   128
 43
0.0
 10
131.2820782353758
 20
-72.47668904722548
 10
-12.86241389694864
 20
-72.47668904722104
 10
-12.86241389694864
 20
-57.70185663950222
  0
LWPOLYLINE
  5
6F
330
1F
100
AcDbEntity
  8
chh-06_Pen_No__7_Pen_No__81
  6
Continuous
100
AcDbPolyline
 90
        4
 70
   128
 43
0.0
 10
-19.1545226385077
 20
341.236927980642
 10
-19.1545226385077
 20
-48.8745597360154
 10
-7.154522638507688
 20
-48.8745597360154
 10
-7.154522638507688
 20
341.236927980642
  0
LWPOLYLINE
  5
71
330
1F
100
AcDbEntity
  8
chh-07_Pen_No__7_Pen_No__7
  6
Continuous
100
AcDbPolyline
 90
        2
 70
   128
 43
0.0
 10
-115.1545226385073
 20
341.2369279806375
 10
-115.1545226385073
 20
226.0847387309699
  0
LWPOLYLINE
  5
72
330
1F
100
AcDbEntity
  8
chh-07_Pen_No__7_Pen_No__7
  6
Continuous
100
AcDbPolyline
 90
        2
 70
   128
 43
0.0
 10
-125.1545226385071
 20
341.2369279806375
 10
-125.1545226385071
 20
226.0847387309699
  0
LWPOLYLINE
  5
73
330
1F
100
AcDbEntity
  8
chh-05_Pen_No__7_Pen_No__7
  6
Continuous
100
AcDbPolyline
 90
        4
 70
   129
 43
0.0
 10
-68.15452263850763
 20
12.08473873096949
 10
-23.1545226385077
 20
12.08473873096949
 10
-23.1545226385077
 20
202.0847387309708
 10
-68.15452263850763
 20
202.0847387309708
  0
LWPOLYLINE
  5
75
330
1F
100
AcDbEntity
  8
chh-05_Pen_No__7_Pen_No__7
  6
Continuous
100
AcDbPolyline
 90
        4
 70
   129
 43
0.0
 10
-23.1545226385077
 20
226.0847387309699
 10
-23.1545226385077
 20
271.0847387309698
 10
-113.1545226385071
 20
271.0847387309698
 10
-113.1545226385071
 20
226.0847387309699
  0
LWPOLYLINE
  5
76
330
1F
100
AcDbEntity
  8
chh-07_Pen_No__7_Pen_No__7
  6
Continuous
100
AcDbPolyline
 90
        2
 70
   128
 43
0.0
 10
-241.7604073647611
 20
-185.2236359535819
 10
-241.7604073647611
 20
12.08473873096949
  0
LWPOLYLINE
  5
77
330
1F
100
AcDbEntity
  8
chh-07_Pen_No__7_Pen_No__7
  6
Continuous
100
AcDbPolyline
 90
        2
 70
   128
 43
0.0
 10
-251.7604073647614
 20
-185.2236359535819
 10
-251.7604073647614
 20
12.08473873096949
  0
LWPOLYLINE
  5
78
330
1F
100
AcDbEntity
  8
chh-05_Pen_No__7_Pen_No__7
  6
Continuous
100
AcDbPolyline
 90
        4
 70
   129
 43
0.0
 10
-149.7604073647609
 20
12.08473873096949
 10
-149.7604073647609
 20
-32.91526126902955
 10
-239.7604073647613
 20
-32.91526126902955
 10
-239.7604073647613
 20
12.08473873096949
  0
LWPOLYLINE
  5
79
330
1F
100
AcDbEntity
  8
chh-07_Pen_No__7_Pen_No__7
  6
Continuous
100
AcDbPolyline
 90
        4
 70
   129
 43
0.0
 10
-124.7604073647615
 20
-88.87455973601988
 10
-124.7604073647615
 20
1.125440263979982
 10
-24.76040736476093
 20
1.125440263979982
 10
-24.76040736476093
 20
-88.87455973601988
  0
LWPOLYLINE
  5
7A
330
1F
100
AcDbEntity
  8
chh-07_Pen_No__7_Pen_No__7
  6
Continuous
100
AcDbPolyline
 90
        4
 70
   128
 43
0.0
 10
-124.7604073647615
 20
-185.2236359535819
 10
-124.7604073647615
 20
-98.87455973601966
 10
-24.76040736476093
 20
-98.87455973601966
 10
-24.76040736476093
 20
-185.2236359535819
  0
LWPOLYLINE
  5
7B
330
1F
100
AcDbEntity
  8
chh-07_Pen_No__7_Pen_No__7
  6
Continuous
100
AcDbPolyline
 90
        4
 70
   129
 43
0.0
 10
-21.15452263850703
 20
3.084738730970926
 10
-21.15452263850703
 20
8.084738730969931
 10
-146.154522638507
 20
8.084738730969931
 10
-146.154522638507
 20
3.084738730970926
  0
LWPOLYLINE
  5
7C
330
1F
100
AcDbEntity
  8
chh-05_Pen_No__7_Pen_No__7
  6
Continuous
100
AcDbPolyline
 90
        4
 70
   129
 43
0.0
 10
-194.7604073647618
 20
12.08473873096949
 10
-149.7604073647609
 20
12.08473873096949
 10
-149.7604073647609
 20
202.0847387309708
 10
-194.7604073647618
 20
202.0847387309708
  0
LWPOLYLINE
  5
7D
330
1F
100
AcDbEntity
  8
chh-05_Pen_No__7_Pen_No__7
  6
Continuous
100
AcDbPolyline
 90
        4
 70
   129
 43
0.0
 10
-194.7604073647618
 20
57.08473873096942
 10
-194.7604073647618
 20
12.08473873096949
 10
-284.7604073647612
 20
12.08473873096949
 10
-284.7604073647612
 20
57.08473873096942
  0
LWPOLYLINE
  5
7F
330
1F
100
AcDbEntity
  8
chh-07_Pen_No__7_Pen_No__7
  6
Hidden
100
AcDbPolyline
 90
        9
 70
   128
 43
0.0
 10
-7.154522638507688
 20
246.4939705563438
 10
-8.497549575398056
 20
246.4939705563438
 10
-8.915023949388035
 20
247.4939705563432
 10
-56.09482063349769
 20
247.4939705563521
 10
-60.60725124300004
 20
248.9850068239488
 10
-56.09482063349724
 20
250.4760430916173
 10
-8.91502394938759
 20
250.4760430916093
 10
-8.49754957538873
 20
251.4760430916087
 10
-7.154522638497474
 20
251.4760430916087
  0
LWPOLYLINE
  5
80
330
1F
100
AcDbEntity
  8
chh-07_Pen_No__7_Pen_No__7
  6
Hidden
100
AcDbPolyline
 90
        9
 70
   128
 43
0.0
 10
-7.154522638507688
 20
24.50485760653631
 10
-8.497549575398056
 20
24.50485760653631
 10
-8.915023949388035
 20
25.50485760653665
 10
-33.09482063349756
 20
25.50485760654198
 10
-37.60725124299991
 20
26.99589387413859
 10
-33.09482063349711
 20
28.48693014180803
 10
-8.91502394938759
 20
28.4869301418027
 10
-8.49754957538873
 20
29.48693014180304
 10
-7.154522638497474
 20
29.48693014180215
  0
LWPOLYLINE
  5
81
330
1F
100
AcDbEntity
  8
chh-09_Pen_No__9_Pen_No__2
  6
Continuous
100
AcDbPolyline
 90
        2
 70
   128
 43
0.0
 10
131.2820782353758
 20
-164.3561591682126
 10
-10.83119839607849
 20
-164.3561591682126
  0
LWPOLYLINE
  5
82
330
1F
100
AcDbEntity
  8
chh-09_Pen_No__9_Pen_No__2
  6
Continuous
100
AcDbPolyline
 90
        3
 70
   128
 43
0.0
 10
131.2820782353758
 20
67.08055604331697
 10
-97.6070837366103
 20
67.08055604331697
 10
-97.6070837366103
 20
14.07412209959169
  0
LWPOLYLINE
  5
83
330
1F
100
AcDbEntity
  8
chh-09_Pen_No__9_Pen_No__2
  6
Continuous
100
AcDbPolyline
 90
        2
 70
   128
 43
0.0
 10
131.2820782353758
 20
-123.5022590418238
 10
-139.0067722587134
 20
-123.5022590418238
  0
ARC
  5
84
330
1F
100
AcDbEntity
  8
chh-07_Pen_No__7_Pen_No__7
  6
Continuous
100
AcDbCircle
 10
-21.3074437782177
 20
-93.87455973601888
 30
0.0
 40
6.076426378225808
100
AcDbArc
 50
124.628675884857
 51
235.3713241151526
  0
ARC
  5
85
330
1F
100
AcDbEntity
  8
chh-07_Pen_No__7_Pen_No__7
  6
Continuous
100
AcDbCircle
 10
-128.2133709513047
 20
-93.87455973601888
 30
0.0
 40
6.076426378225808
100
AcDbArc
 50
304.6286758848475
 51
55.37132411514303
  0
DIMENSION
  5
B6
330
1F
100
AcDbEntity
  8
chh-txt
  6
Continuous
100
AcDbDimension
  2
*D1
 10
52.29333029284233
 20
-48.8745597360154
 30
0.0
 11
48.79333029284233
 21
-24.16160962615265
 31
0.0
 70
    32
  1
\A1;50mm min
 71
     5
 42
-1.0
  3
GENERATED_STYLE__1
100
AcDbAlignedDimension
 13
-2.154522638507794
 23
-48.8745597360154
 33
0.0
 14
-2.154522638507794
 24
1.125440263983535
 34
0.0
 50
90.0
100
AcDbRotatedDimension
  0
MTEXT
  5
BE
330
1F
100
AcDbEntity
  8
chh-txt_Pen_No__7_Pen_No__7
  6
Continuous
100
AcDbMText
 10
133.1555017931396
 20
325.5040780172312
 30
0.0
 40
5.0
 41
0.0
 71
     7
 72
     1
  1
{Shadowclad}
  7
GENERATED_STYLE_1
 73
     1
 44
1.0
  0
MTEXT
  5
C0
330
1F
100
AcDbEntity
  8
chh-txt_Pen_No__7_Pen_No__7
  6
Continuous
100
AcDbMText
 10
-266.6036304962985
 20
-223.7381321950995
 30
0.0
 40
5.0
 41
0.0
 71
     7
 72
     1
  1
{Vertical section}
  7
GENERATED_STYLE_1
 73
     1
 44
1.0
  0
MTEXT
  5
C1
330
1F
100
AcDbEntity
  8
Defpoints_Pen_No__211_Pen_No__115
  6
Continuous
100
AcDbMText
 10
-266.6036304962985
 20
-300.9016258143718
 30
0.0
 40
10.0
 41
0.0
 71
     7
 72
     1
  1
{SC043 Shadowclad Upper Storey to Masonry Veneer (Direct)}
  7
GENERATED_STYLE_1
 73
     1
 44
1.0
  0
MTEXT
  5
C3
330
1F
100
AcDbEntity
  8
chh-txt_Pen_No__7_Pen_No__7
  6
Continuous
100
AcDbMText
 10
133.1555017931396
 20
297.9227047739637
 30
0.0
 40
5.0
 41
0.0
 71
     7
 72
     1
  1
{Building underlay}
  7
GENERATED_STYLE_1
 73
     1
 44
1.0
  0
MTEXT
  5
C4
330
1F
100
AcDbEntity
  8
chh-txt_Pen_No__7_Pen_No__7
  6
Continuous
100
AcDbMText
 10
133.1555017931396
 20
170.5286770246882
 30
0.0
 40
5.0
 41
0.0
 71
     7
 72
     1
  1
{Boundary joist}
  7
GENERATED_STYLE_1
 73
     1
 44
1.0
  0
MTEXT
  5
C5
330
1F
100
AcDbEntity
  8
chh-txt_Pen_No__7_Pen_No__7
  6
Continuous
100
AcDbMText
 10
133.1555017931396
 20
-75.48084059974657
 30
0.0
 40
5.0
 41
0.0
 71
     7
 72
     1
  1
{Treat all Shadowclad cut edges with }
  7
GENERATED_STYLE_1
 73
     1
 44
1.0
  0
MTEXT
  5
C6
330
1F
100
AcDbEntity
  8
chh-txt_Pen_No__7_Pen_No__7
  6
Continuous
100
AcDbMText
 10
133.1555017931396
 20
-83.4967030719774
 30
0.0
 40
5.0
 41
0.0
 71
     7
 72
     1
  1
{Holdfast Metalex Clear }
  7
GENERATED_STYLE_1
 73
     1
 44
1.0
  0
MTEXT
  5
C7
330
1F
100
AcDbEntity
  8
chh-txt_Pen_No__7_Pen_No__7
  6
Continuous
100
AcDbMText
 10
133.1555017931396
 20
-169.0118355109039
 30
0.0
 40
5.0
 41
0.0
 71
     7
 72
     1
  1
{Masonry veneer}
  7
GENERATED_STYLE_1
 73
     1
 44
1.0
  0
MTEXT
  5
C8
330
1F
100
AcDbEntity
  8
chh-txt_Pen_No__7_Pen_No__7
  6
Continuous
100
AcDbMText
 10
133.1555017931396
 20
62.42487970062739
 30
0.0
 40
5.0
 41
0.0
 71
     7
 72
     1
  1
{Soffit lining with building underlay above}
  7
GENERATED_STYLE_1
 73
     1
 44
1.0
  0
MTEXT
  5
C9
330
1F
100
AcDbEntity
  8
chh-txt_Pen_No__7_Pen_No__7
  6
Continuous
100
AcDbMText
 10
133.1555017931396
 20
-128.1579353845142
 30
0.0
 40
5.0
 41
0.0
 71
     7
 72
     1
  1
{Building underlay}
  7
GENERATED_STYLE_1
 73
     1
 44
1.0
  0
ENDSEC
  0
SECTION
  2
OBJECTS
  0
DICTIONARY
  5
C
330
0
100
AcDbDictionary
281
     1
  3
ACAD_GROUP
350
D
  3
ACAD_LAYOUT
350
1A
  3
ACAD_MLEADERSTYLE
350
D2
  3
ACAD_MLINESTYLE
350
17
  3
ACAD_PLOTSETTINGS
350
19
  3
ACAD_PLOTSTYLENAME
350
E
  3
ACAD_SCALELIST
350
94
  3
ACAD_TABLESTYLE
350
D1
  3
ACAD_VISUALSTYLE
350
2A
  3
AcDbVariableDictionary
350
CF
  3
WATERMARKS
350
CD
  0
DICTIONARY
  5
D
102
{ACAD_REACTORS
330
C
102
}
330
C
100
AcDbDictionary
281
     1
  0
DICTIONARY
  5
1A
102
{ACAD_REACTORS
330
C
102
}
330
C
100
AcDbDictionary
281
     1
  3
Layout1
350
1E
  3
Layout2
350
26
  3
Model
350
22
  0
DICTIONARY
  5
D2
102
{ACAD_REACTORS
330
C
102
}
330
C
100
AcDbDictionary
281
     1
  0
DICTIONARY
  5
17
102
{ACAD_REACTORS
330
C
102
}
330
C
100
AcDbDictionary
281
     1
  3
Standard
350
18
  0
DICTIONARY
  5
19
102
{ACAD_REACTORS
330
C
102
}
330
C
100
AcDbDictionary
281
     1
  0
ACDBDICTIONARYWDFLT
  5
E
102
{ACAD_REACTORS
330
C
102
}
330
C
100
AcDbDictionary
281
     1
  3
Normal
350
F
100
AcDbDictionaryWithDefault
340
F
  0
DICTIONARY
  5
94
102
{ACAD_REACTORS
330
C
102
}
330
C
100
AcDbDictionary
281
     1
  3
A0
350
95
  3
A1
350
96
  3
A2
350
97
  3
A3
350
98
  3
A4
350
99
  3
A5
350
9A
  3
A6
350
9B
  3
A7
350
9C
  3
A8
350
9D
  3
A9
350
9E
  3
B0
350
9F
  3
B1
350
A0
  3
B2
350
A1
  3
B3
350
A2
  3
B4
350
A3
  3
B5
350
A4
  3
B6
350
A5
  3
B7
350
A6
  3
B8
350
A7
  3
B9
350
A8
  3
C0
350
A9
  3
C1
350
AA
  3
C2
350
AB
  3
C3
350
AC
  3
C4
350
AD
  3
C5
350
AE
  3
C6
350
AF
  3
C7
350
B0
  3
C8
350
B1
  3
C9
350
B2
  3
D0
350
B3
  3
D1
350
B4
  3
D2
350
B5
  0
DICTIONARY
  5
D1
102
{ACAD_REACTORS
330
C
102
}
330
C
100
AcDbDictionary
281
     1
  0
DICTIONARY
  5
2A
102
{ACAD_REACTORS
330
C
102
}
330
C
100
AcDbDictionary
281
     1
  3
2dWireframe
350
2F
  3
3D Hidden
350
31
  3
3dWireframe
350
30
  3
Basic
350
32
  3
Brighten
350
36
  3
ColorChange
350
3A
  3
Conceptual
350
34
  3
Dim
350
35
  3
Facepattern
350
39
  3
Flat
350
2B
  3
FlatWithEdges
350
2C
  3
Gouraud
350
2D
  3
GouraudWithEdges
350
2E
  3
Linepattern
350
38
  3
Realistic
350
33
  3
Thicken
350
37
  0
DICTIONARY
  5
CF
102
{ACAD_REACTORS
330
C
102
}
330
C
100
AcDbDictionary
281
     1
  3
CANNOSCALE
350
D0
  0
DICTIONARY
  5
CD
102
{ACAD_REACTORS
330
C
102
}
330
C
100
AcDbDictionary
281
     1
  3
AC_WATERMARK
350
CE
  0
LAYOUT
  5
1E
102
{ACAD_REACTORS
330
1A
102
}
330
1A
100
AcDbPlotSettings
  1

  2
none_device
  4

  6

 40
0.0
 41
0.0
 42
0.0
 43
0.0
 44
0.0
 45
0.0
 46
0.0
 47
0.0
 48
0.0
 49
0.0
140
0.0
141
0.0
142
1.0
143
1.0
 70
   688
 72
     0
 73
     0
 74
     5
  7

 75
    16
 76
     0
 77
     2
 78
   300
147
1.0
148
0.0
149
0.0
100
AcDbLayout
  1
Layout1
 70
     1
 71
     1
 10
0.0
 20
0.0
 11
12.0
 21
9.0
 12
0.0
 22
0.0
 32
0.0
 14
1.000000000000000E+20
 24
1.000000000000000E+20
 34
1.000000000000000E+20
 15
-1.000000000000000E+20
 25
-1.000000000000000E+20
 35
-1.000000000000000E+20
146
0.0
 13
0.0
 23
0.0
 33
0.0
 16
1.0
 26
0.0
 36
0.0
 17
0.0
 27
1.0
 37
0.0
 76
     0
330
1B
  0
LAYOUT
  5
26
102
{ACAD_REACTORS
330
1A
102
}
330
1A
100
AcDbPlotSettings
  1

  2
none_device
  4

  6

 40
0.0
 41
0.0
 42
0.0
 43
0.0
 44
0.0
 45
0.0
 46
0.0
 47
0.0
 48
0.0
 49
0.0
140
0.0
141
0.0
142
1.0
143
1.0
 70
   688
 72
     0
 73
     0
 74
     5
  7

 75
    16
 76
     0
 77
     2
 78
   300
147
1.0
148
0.0
149
0.0
100
AcDbLayout
  1
Layout2
 70
     1
 71
     2
 10
0.0
 20
0.0
 11
0.0
 21
0.0
 12
0.0
 22
0.0
 32
0.0
 14
0.0
 24
0.0
 34
0.0
 15
0.0
 25
0.0
 35
0.0
146
0.0
 13
0.0
 23
0.0
 33
0.0
 16
1.0
 26
0.0
 36
0.0
 17
0.0
 27
1.0
 37
0.0
 76
     0
330
23
  0
LAYOUT
  5
22
102
{ACAD_REACTORS
330
1A
102
}
330
1A
100
AcDbPlotSettings
  1

  2
none_device
  4

  6

 40
0.0
 41
0.0
 42
0.0
 43
0.0
 44
0.0
 45
0.0
 46
0.0
 47
0.0
 48
0.0
 49
0.0
140
0.0
141
0.0
142
1.0
143
1.0
 70
  1712
 72
     0
 73
     0
 74
     0
  7

 75
     0
 76
     0
 77
     2
 78
   300
147
1.0
148
0.0
149
0.0
100
AcDbLayout
  1
Model
 70
     1
 71
     0
 10
0.0
 20
0.0
 11
12.0
 21
9.0
 12
0.0
 22
0.0
 32
0.0
 14
1.000000000000000E+20
 24
1.000000000000000E+20
 34
1.000000000000000E+20
 15
-1.000000000000000E+20
 25
-1.000000000000000E+20
 35
-1.000000000000000E+20
146
0.0
 13
0.0
 23
0.0
 33
0.0
 16
1.0
 26
0.0
 36
0.0
 17
0.0
 27
1.0
 37
0.0
 76
     0
330
1F
331
29
  0
MLINESTYLE
  5
18
102
{ACAD_REACTORS
330
17
102
}
330
17
100
AcDbMlineStyle
  2
Standard
 70
     0
  3

 62
   256
 51
90.0
 52
90.0
 71
     2
 49
0.5
 62
   256
  6
BYLAYER
 49
-0.5
 62
   256
  6
BYLAYER
  0
ACDBPLACEHOLDER
  5
F
102
{ACAD_REACTORS
330
E
102
}
330
E
  0
SCALE
  5
95
102
{ACAD_REACTORS
330
94
102
}
330
94
100
AcDbScale
 70
     0
300
1:1
140
1.0
141
1.0
290
     1
  0
SCALE
  5
96
102
{ACAD_REACTORS
330
94
102
}
330
94
100
AcDbScale
 70
     0
300
1:2
140
1.0
141
2.0
290
     0
  0
SCALE
  5
97
102
{ACAD_REACTORS
330
94
102
}
330
94
100
AcDbScale
 70
     0
300
1:4
140
1.0
141
4.0
290
     0
  0
SCALE
  5
98
102
{ACAD_REACTORS
330
94
102
}
330
94
100
AcDbScale
 70
     0
300
1:5
140
1.0
141
5.0
290
     0
  0
SCALE
  5
99
102
{ACAD_REACTORS
330
94
102
}
330
94
100
AcDbScale
 70
     0
300
1:8
140
1.0
141
8.0
290
     0
  0
SCALE
  5
9A
102
{ACAD_REACTORS
330
94
102
}
330
94
100
AcDbScale
 70
     0
300
1:10
140
1.0
141
10.0
290
     0
  0
SCALE
  5
9B
102
{ACAD_REACTORS
330
94
102
}
330
94
100
AcDbScale
 70
     0
300
1:16
140
1.0
141
16.0
290
     0
  0
SCALE
  5
9C
102
{ACAD_REACTORS
330
94
102
}
330
94
100
AcDbScale
 70
     0
300
1:20
140
1.0
141
20.0
290
     0
  0
SCALE
  5
9D
102
{ACAD_REACTORS
330
94
102
}
330
94
100
AcDbScale
 70
     0
300
1:30
140
1.0
141
30.0
290
     0
  0
SCALE
  5
9E
102
{ACAD_REACTORS
330
94
102
}
330
94
100
AcDbScale
 70
     0
300
1:40
140
1.0
141
40.0
290
     0
  0
SCALE
  5
9F
102
{ACAD_REACTORS
330
94
102
}
330
94
100
AcDbScale
 70
     0
300
1:50
140
1.0
141
50.0
290
     0
  0
SCALE
  5
A0
102
{ACAD_REACTORS
330
94
102
}
330
94
100
AcDbScale
 70
     0
300
1:100
140
1.0
141
100.0
290
     0
  0
SCALE
  5
A1
102
{ACAD_REACTORS
330
94
102
}
330
94
100
AcDbScale
 70
     0
300
2:1
140
2.0
141
1.0
290
     0
  0
SCALE
  5
A2
102
{ACAD_REACTORS
330
94
102
}
330
94
100
AcDbScale
 70
     0
300
4:1
140
4.0
141
1.0
290
     0
  0
SCALE
  5
A3
102
{ACAD_REACTORS
330
94
102
}
330
94
100
AcDbScale
 70
     0
300
8:1
140
8.0
141
1.0
290
     0
  0
SCALE
  5
A4
102
{ACAD_REACTORS
330
94
102
}
330
94
100
AcDbScale
 70
     0
300
10:1
140
10.0
141
1.0
290
     0
  0
SCALE
  5
A5
102
{ACAD_REACTORS
330
94
102
}
330
94
100
AcDbScale
 70
     0
300
100:1
140
100.0
141
1.0
290
     0
  0
SCALE
  5
A6
102
{ACAD_REACTORS
330
94
102
}
330
94
100
AcDbScale
 70
     0
300
1/128" = 1'-0"
140
0.0078125
141
12.0
290
     0
  0
SCALE
  5
A7
102
{ACAD_REACTORS
330
94
102
}
330
94
100
AcDbScale
 70
     0
300
1/64" = 1'-0"
140
0.015625
141
12.0
290
     0
  0
SCALE
  5
A8
102
{ACAD_REACTORS
330
94
102
}
330
94
100
AcDbScale
 70
     0
300
1/32" = 1'-0"
140
0.03125
141
12.0
290
     0
  0
SCALE
  5
A9
102
{ACAD_REACTORS
330
94
102
}
330
94
100
AcDbScale
 70
     0
300
1/16" = 1'-0"
140
0.0625
141
12.0
290
     0
  0
SCALE
  5
AA
102
{ACAD_REACTORS
330
94
102
}
330
94
100
AcDbScale
 70
     0
300
3/32" = 1'-0"
140
0.09375
141
12.0
290
     0
  0
SCALE
  5
AB
102
{ACAD_REACTORS
330
94
102
}
330
94
100
AcDbScale
 70
     0
300
1/8" = 1'-0"
140
0.125
141
12.0
290
     0
  0
SCALE
  5
AC
102
{ACAD_REACTORS
330
94
102
}
330
94
100
AcDbScale
 70
     0
300
3/16" = 1'-0"
140
0.1875
141
12.0
290
     0
  0
SCALE
  5
AD
102
{ACAD_REACTORS
330
94
102
}
330
94
100
AcDbScale
 70
     0
300
1/4" = 1'-0"
140
0.25
141
12.0
290
     0
  0
SCALE
  5
AE
102
{ACAD_REACTORS
330
94
102
}
330
94
100
AcDbScale
 70
     0
300
3/8" = 1'-0"
140
0.375
141
12.0
290
     0
  0
SCALE
  5
AF
102
{ACAD_REACTORS
330
94
102
}
330
94
100
AcDbScale
 70
     0
300
1/2" = 1'-0"
140
0.5
141
12.0
290
     0
  0
SCALE
  5
B0
102
{ACAD_REACTORS
330
94
102
}
330
94
100
AcDbScale
 70
     0
300
3/4" = 1'-0"
140
0.75
141
12.0
290
     0
  0
SCALE
  5
B1
102
{ACAD_REACTORS
330
94
102
}
330
94
100
AcDbScale
 70
     0
300
1" = 1'-0"
140
1.0
141
12.0
290
     0
  0
SCALE
  5
B2
102
{ACAD_REACTORS
330
94
102
}
330
94
100
AcDbScale
 70
     0
300
1-1/2" = 1'-0"
140
1.5
141
12.0
290
     0
  0
SCALE
  5
B3
102
{ACAD_REACTORS
330
94
102
}
330
94
100
AcDbScale
 70
     0
300
3" = 1'-0"
140
3.0
141
12.0
290
     0
  0
SCALE
  5
B4
102
{ACAD_REACTORS
330
94
102
}
330
94
100
AcDbScale
 70
     0
300
6" = 1'-0"
140
6.0
141
12.0
290
     0
  0
SCALE
  5
B5
102
{ACAD_REACTORS
330
94
102
}
330
94
100
AcDbScale
 70
     0
300
1'-0" = 1'-0"
140
12.0
141
12.0
290
     0
  0
VISUALSTYLE
  5
2F
102
{ACAD_REACTORS
330
2A
102
}
330
2A
100
AcDbVisualStyle
  2
2dWireframe
 70
     4
 71
     0
 72
     2
 73
     0
 90
        0
 40
-0.6
 41
-30.0
 62
     5
 63
     7
421
 16777215
 74
     1
 91
        4
 64
     7
 65
   257
 75
     1
175
     1
 42
1.0
 92
        0
 66
   257
 43
1.0
 76
     1
 77
     6
 78
     2
 67
     7
 79
     5
170
     0
171
     0
290
     0
174
     0
 93
        1
 44
0.0
173
     0
291
     0
 45
0.0
1001
ACAD
1000
AcDbSavedByObjectVersion
1070
     0
  0
VISUALSTYLE
  5
31
102
{ACAD_REACTORS
330
2A
102
}
330
2A
100
AcDbVisualStyle
  2
3D Hidden
 70
     6
 71
     1
 72
     2
 73
     2
 90
        0
 40
-0.6
 41
-30.0
 62
     5
 63
     7
421
 16777215
 74
     2
 91
        2
 64
     7
 65
   257
 75
     2
175
     1
 42
40.0
 92
        0
 66
   257
 43
1.0
 76
     1
 77
     6
 78
     2
 67
     7
 79
     3
170
     0
171
     0
290
     0
174
     0
 93
        1
 44
0.0
173
     0
291
     0
 45
0.0
1001
ACAD
1000
AcDbSavedByObjectVersion
1070
     0
  0
VISUALSTYLE
  5
30
102
{ACAD_REACTORS
330
2A
102
}
330
2A
100
AcDbVisualStyle
  2
3dWireframe
 70
     5
 71
     0
 72
     2
 73
     0
 90
        0
 40
-0.6
 41
-30.0
 62
     5
 63
     7
421
 16777215
 74
     1
 91
        4
 64
     7
 65
   257
 75
     1
175
     1
 42
1.0
 92
        0
 66
   257
 43
1.0
 76
     1
 77
     6
 78
     2
 67
     7
 79
     5
170
     0
171
     0
290
     0
174
     0
 93
        1
 44
0.0
173
     0
291
     0
 45
0.0
1001
ACAD
1000
AcDbSavedByObjectVersion
1070
     0
  0
VISUALSTYLE
  5
32
102
{ACAD_REACTORS
330
2A
102
}
330
2A
100
AcDbVisualStyle
  2
Basic
 70
     7
 71
     1
 72
     0
 73
     1
 90
        0
 40
-0.6
 41
-30.0
 62
     5
 63
     7
421
 16777215
 74
     0
 91
        4
 64
     7
 65
   257
 75
     1
175
     1
 42
1.0
 92
        8
 66
     7
 43
1.0
 76
     1
 77
     6
 78
     2
 67
     7
 79
     5
170
     0
171
     0
290
     0
174
     0
 93
        1
 44
0.0
173
     0
291
     1
 45
0.0
1001
ACAD
1000
AcDbSavedByObjectVersion
1070
     0
  0
VISUALSTYLE
  5
36
102
{ACAD_REACTORS
330
2A
102
}
330
2A
100
AcDbVisualStyle
  2
Brighten
 70
    12
 71
     2
 72
     2
 73
     0
 90
        0
 40
-0.6
 41
-30.0
 62
     5
 63
     7
421
 16777215
 74
     1
 91
        4
 64
     7
 65
   257
 75
     1
175
     1
 42
1.0
 92
        8
 66
     7
 43
1.0
 76
     1
 77
     6
 78
     2
 67
     7
 79
     5
170
     0
171
     0
290
     0
174
     0
 93
        1
 44
50.0
173
     0
291
     1
 45
0.0
1001
ACAD
1000
AcDbSavedByObjectVersion
1070
     0
  0
VISUALSTYLE
  5
3A
102
{ACAD_REACTORS
330
2A
102
}
330
2A
100
AcDbVisualStyle
  2
ColorChange
 70
    16
 71
     2
 72
     2
 73
     3
 90
        0
 40
-0.6
 41
-30.0
 62
     5
 63
     8
421
  8421504
 74
     1
 91
        4
 64
     7
 65
   257
 75
     1
175
     1
 42
1.0
 92
        8
 66
     8
424
  8421504
 43
1.0
 76
     1
 77
     6
 78
     2
 67
     7
 79
     5
170
     0
171
     0
290
     0
174
     0
 93
        1
 44
0.0
173
     0
291
     1
 45
0.0
1001
ACAD
1000
AcDbSavedByObjectVersion
1070
     0
  0
VISUALSTYLE
  5
34
102
{ACAD_REACTORS
330
2A
102
}
330
2A
100
AcDbVisualStyle
  2
Conceptual
 70
     9
 71
     3
 72
     2
 73
     0
 90
        0
 40
-0.6
 41
-30.0
 62
     5
 63
     7
421
 16777215
 74
     2
 91
        2
 64
     7
 65
   257
 75
     1
175
     1
 42
40.0
 92
        8
 66
     7
 43
1.0
 76
     1
 77
     6
 78
     2
 67
     7
 79
     3
170
     0
171
     0
290
     0
174
     0
 93
        1
 44
0.0
173
     0
291
     0
 45
0.0
1001
ACAD
1000
AcDbSavedByObjectVersion
1070
     0
  0
VISUALSTYLE
  5
35
102
{ACAD_REACTORS
330
2A
102
}
330
2A
100
AcDbVisualStyle
  2
Dim
 70
    11
 71
     2
 72
     2
 73
     0
 90
        0
 40
-0.6
 41
-30.0
 62
     5
 63
     7
421
 16777215
 74
     1
 91
        4
 64
     7
 65
   257
 75
     1
175
     1
 42
1.0
 92
        8
 66
     7
 43
1.0
 76
     1
 77
     6
 78
     2
 67
     7
 79
     5
170
     0
171
     0
290
     0
174
     0
 93
        1
 44
-50.0
173
     0
291
     1
 45
0.0
1001
ACAD
1000
AcDbSavedByObjectVersion
1070
     0
  0
VISUALSTYLE
  5
39
102
{ACAD_REACTORS
330
2A
102
}
330
2A
100
AcDbVisualStyle
  2
Facepattern
 70
    15
 71
     2
 72
     2
 73
     0
 90
        0
 40
-0.6
 41
-30.0
 62
     5
 63
     7
421
 16777215
 74
     1
 91
        4
 64
     7
 65
   257
 75
     1
175
     1
 42
1.0
 92
        8
 66
     7
 43
1.0
 76
     1
 77
     6
 78
     2
 67
     7
 79
     5
170
     0
171
     0
290
     0
174
     0
 93
        1
 44
0.0
173
     0
291
     1
 45
0.0
1001
ACAD
1000
AcDbSavedByObjectVersion
1070
     0
  0
VISUALSTYLE
  5
2B
102
{ACAD_REACTORS
330
2A
102
}
330
2A
100
AcDbVisualStyle
  2
Flat
 70
     0
 71
     2
 72
     1
 73
     1
 90
        2
 40
-0.6
 41
30.0
 62
     5
 63
     7
421
 16777215
 74
     0
 91
        4
 64
     7
 65
   257
 75
     1
175
     1
 42
1.0
 92
        8
 66
     7
 43
1.0
 76
     1
 77
     6
 78
     2
 67
     7
 79
     5
170
     0
171
     0
290
     0
174
     0
 93
       13
 44
0.0
173
     0
291
     1
 45
0.0
1001
ACAD
1000
AcDbSavedByObjectVersion
1070
     0
  0
VISUALSTYLE
  5
2C
102
{ACAD_REACTORS
330
2A
102
}
330
2A
100
AcDbVisualStyle
  2
FlatWithEdges
 70
     1
 71
     2
 72
     1
 73
     1
 90
        2
 40
-0.6
 41
30.0
 62
     5
 63
     7
421
 16777215
 74
     1
 91
        4
 64
     7
 65
   257
 75
     1
175
     1
 42
1.0
 92
        0
 66
   257
 43
1.0
 76
     1
 77
     6
 78
     2
 67
     7
 79
     5
170
     0
171
     0
290
     0
174
     0
 93
       13
 44
0.0
173
     0
291
     1
 45
0.0
1001
ACAD
1000
AcDbSavedByObjectVersion
1070
     0
  0
VISUALSTYLE
  5
2D
102
{ACAD_REACTORS
330
2A
102
}
330
2A
100
AcDbVisualStyle
  2
Gouraud
 70
     2
 71
     2
 72
     2
 73
     1
 90
        2
 40
-0.6
 41
30.0
 62
     5
 63
     7
421
 16777215
 74
     0
 91
        4
 64
     7
 65
   257
 75
     1
175
     1
 42
1.0
 92
        0
 66
     7
 43
1.0
 76
     1
 77
     6
 78
     2
 67
     7
 79
     5
170
     0
171
     0
290
     0
174
     0
 93
       13
 44
0.0
173
     0
291
     1
 45
0.0
1001
ACAD
1000
AcDbSavedByObjectVersion
1070
     0
  0
VISUALSTYLE
  5
2E
102
{ACAD_REACTORS
330
2A
102
}
330
2A
100
AcDbVisualStyle
  2
GouraudWithEdges
 70
     3
 71
     2
 72
     2
 73
     1
 90
        2
 40
-0.6
 41
30.0
 62
     5
 63
     7
421
 16777215
 74
     1
 91
        4
 64
     7
 65
   257
 75
     1
175
     1
 42
1.0
 92
        0
 66
   257
 43
1.0
 76
     1
 77
     6
 78
     2
 67
     7
 79
     5
170
     0
171
     0
290
     0
174
     0
 93
       13
 44
0.0
173
     0
291
     1
 45
0.0
1001
ACAD
1000
AcDbSavedByObjectVersion
1070
     0
  0
VISUALSTYLE
  5
38
102
{ACAD_REACTORS
330
2A
102
}
330
2A
100
AcDbVisualStyle
  2
Linepattern
 70
    14
 71
     2
 72
     2
 73
     0
 90
        0
 40
-0.6
 41
-30.0
 62
     5
 63
     7
421
 16777215
 74
     1
 91
        4
 64
     7
 65
   257
 75
     7
175
     7
 42
1.0
 92
        8
 66
     7
 43
1.0
 76
     1
 77
     6
 78
     2
 67
     7
 79
     5
170
     0
171
     0
290
     0
174
     0
 93
        1
 44
0.0
173
     0
291
     1
 45
0.0
1001
ACAD
1000
AcDbSavedByObjectVersion
1070
     0
  0
VISUALSTYLE
  5
33
102
{ACAD_REACTORS
330
2A
102
}
330
2A
100
AcDbVisualStyle
  2
Realistic
 70
     8
 71
     2
 72
     2
 73
     0
 90
        0
 40
-0.6
 41
-30.0
 62
     5
 63
     7
421
 16777215
 74
     1
 91
        0
 64
     7
 65
   257
 75
     1
175
     1
 42
1.0
 92
        8
 66
     8
424
  7895160
 43
1.0
 76
     1
 77
     6
 78
     2
 67
     7
 79
     5
170
     0
171
     0
290
     0
174
     0
 93
       13
 44
0.0
173
     0
291
     0
 45
0.0
1001
ACAD
1000
AcDbSavedByObjectVersion
1070
     0
  0
VISUALSTYLE
  5
37
102
{ACAD_REACTORS
330
2A
102
}
330
2A
100
AcDbVisualStyle
  2
Thicken
 70
    13
 71
     2
 72
     2
 73
     0
 90
        0
 40
-0.6
 41
-30.0
 62
     5
 63
     7
421
 16777215
 74
     1
 91
        4
 64
     7
 65
   257
 75
     1
175
     1
 42
1.0
 92
       12
 66
     7
 43
1.0
 76
     1
 77
     6
 78
     2
 67
     7
 79
     5
170
     0
171
     0
290
     0
174
     0
 93
        1
 44
0.0
173
     0
291
     1
 45
0.0
1001
ACAD
1000
AcDbSavedByObjectVersion
1070
     0
  0
DICTIONARYVAR
  5
D0
102
{ACAD_REACTORS
330
CF
102
}
330
CF
100
DictionaryVariables
280
     0
  1
1:1
  0
XRECORD
  5
CE
102
{ACAD_REACTORS
330
CD
102
}
330
CD
100
AcDbXrecord
280
     1
1000
This DWG file was created in ArchiCAD(TM)®
  0
ENDSEC
  0
EOF
